#TITLE:u9 300;
#SUBTITLE:omg it is teh fast! ---->ZOOM!!!;
#ARTIST:Djsmalls...^_^;
#TITLETRANSLIT:;
#SUBTITLETRANSLIT:;
#ARTISTTRANSLIT:;
#CREDIT:;
#BANNER:u9-300.PNG;
#BACKGROUND:u9-300 bg.PNG;
#LYRICSPATH:;
#CDTITLE:cdtitle.png;
#MUSIC:u9 300.mp3;
#OFFSET:0.000;
#SAMPLESTART:48.199;
#SAMPLELENGTH:12.000;
#SELECTABLE:YES;
#BPMS:0.000=79.980,7.625=25.000,8.000=150.000,119.000=18.000,119.875=13.500,120.000=75.000,128.000=150.000,144.000=300.000,176.000=599.996,192.000=1200.000,224.000=2400.012,292.000=23.504,292.625=24.504;
#STOPS:;
#BGCHANGES:;
// cache tags:
#FIRSTBEAT:0.000;
#LASTBEAT:293.063;
#SONGFILENAME:Songs/Music V.I.P ^_^/u9 300/blankdwifile.sm;
#HASMUSIC:1;
#HASBANNER:1;
#MUSICLENGTH:84.775;
// end cache tags

//---------------dance-single - ----------------
#NOTES:
     dance-single:
     :
     Easy:
     1:
     1.000,1.000,0.554,0.142,1.000,636.000,47.000,12.000,0.000,0.000:
1000
0100
0001
0100
0010
0001
0100
1000
0001
0100
0010
0001
1000
0100
0001
0010
0100
1000
0001
0100
0010
0001
0100
0010
,
1000
0000
0000
0000
0000
0000
0000
0000
0100
0000
0000
0000
0000
0000
0000
0000
0001
0000
0000
0000
0000
0000
0000
0000
0100
0000
0000
0000
0000
0000
0000
0000
0010
0000
0000
0000
0000
0000
0000
0000
0001
0000
0000
0000
0000
0000
0000
0000
1000
0000
0000
0000
0000
0000
0000
0000
0100
0000
0000
0000
0000
0000
0000
0000
0001
0000
0000
0000
0000
0000
0000
0000
0100
0000
0000
0000
0000
0000
0000
0000
0010
0000
0000
0000
0000
0000
0000
0000
0001
0000
0000
0000
0000
0000
0000
0000
1000
0000
0000
0000
0000
0000
0100
0000
0000
0000
0000
0000
0001
0000
0000
0000
0000
0000
0010
0000
0000
0000
0000
0000
0100
0000
0000
0000
0000
0000
1000
0000
0000
0000
0000
0000
0001
0000
0000
0000
0000
0000
0100
0000
0000
0000
0000
0000
0010
0000
0000
0000
0000
0000
0001
0000
0000
0000
0000
0000
1000
0000
0000
0000
0000
0000
0100
0000
0000
0000
0000
0000
0010
0000
0000
0000
0000
0000
2000
0000
0000
0000
0000
0000
0000
0000
0000
0000
0000
0000
3000
0000
0000
0000
0000
0000
,
1000
0100
1000
0000
0100
0000
0010
0000
0001
0100
1000
0001
0100
0010
0001
1000
,
0100
0010
0001
0000
1000
0000
0100
0000
0001
1000
0100
0001
1000
0100
0001
1000
,
0010
1000
0001
0000
0100
0000
0010
0000
0001
0100
1000
0001
0010
0100
0001
1000
,
0100
0010
0001
0000
0100
0000
1000
0000
0100
0010
0001
0100
1000
0001
0100
0010
,
1000
0100
0001
0000
0100
0000
0010
0001
0010
0100
1000
0001
0100
0010
0001
0100
,
0010
0001
0100
0000
1000
0000
0100
0001
0010
0100
1000
0001
0010
0100
0001
0100
,
0001
0010
0100
0000
1000
0000
0100
0001
1000
0100
0001
0010
0100
1000
0001
0010
,
0100
1000
0100
0000
0010
0000
0001
0100
1000
0001
0100
0010
0001
1000
0100
0010
,
0001
1000
0010
1000
0100
0010
0100
0001
0010
0001
0100
1000
0100
0010
0100
0010
,
0001
0010
0100
1000
0001
0010
0100
1000
1000
0100
0010
0001
1000
0100
0010
0001
,
1000
0100
1000
0100
0010
0100
0010
0001
0010
0001
0010
0100
1000
0100
1000
0100
,
0010
0001
0100
0010
0001
1000
0010
0100
0001
1000
0010
0100
0001
1000
0100
0001
,
0010
1000
0001
0010
1000
0100
0001
0010
1000
0100
0001
1000
0100
0010
0001
0100
,
0100
0001
1000
0001
1000
0010
0100
1000
0001
1000
0100
0010
0001
1000
0001
0010
,
0110
1001
0011
0110
1100
0110
0011
1100
,
0011
1010
0101
1010
0101
0110
1001
0110
,
1001
0100
0110
0010
0011
0100
1100
0001
,
1001
1000
1001
0100
0110
0010
0110
1000
,
1100
0010
0011
0100
1010
0010
0101
1000
,
0110
0001
0110
1001
0110
1001
0220
0330
,
1000
0000
0100
0000
0010
0001
0000
0001
0010
0000
0100
0000
1000
0100
0000
0100
,
1000
0000
0100
0000
0010
0001
0000
0001
0010
0000
0100
0000
2002
0000
3003
0000
,
0100
0000
0010
0000
0001
0010
0000
0001
0100
0000
1000
0000
0010
0100
0000
0001
,
0010
0000
0100
0000
1000
0100
0000
0010
0001
0000
0110
0000
2002
0000
3003
0000
,
1000
0001
0100
0010
0001
1000
0100
0001
0010
0100
0001
1000
0100
0010
0001
0100
,
0001
0100
1000
0001
0100
0010
0100
1000
0001
0100
0110
0000
2002
0000
3003
0000
,
1000
0001
0100
0010
1000
0001
1000
0100
0001
0100
1000
0100
0001
0010
0100
1000
,
0001
0000
0000
0000
0000
0000
0000
0000
0000
0000
0000
0000
0000
0000
0000
0000
0010
0000
0000
0000
0000
0000
0000
0000
0000
0000
0000
0000
0000
0000
0000
0000
0100
0000
0000
0000
0000
0000
0000
0000
0000
0000
0000
0000
0000
0000
0000
0000
1000
0000
0000
0000
0000
0000
0000
0000
0000
0000
0000
0000
0000
0000
0000
0000
0001
0000
0000
0000
0000
0000
0000
0000
0000
0000
0000
0000
0000
0000
0000
0000
0010
0000
0000
0000
0000
0000
0000
0000
0000
0000
0000
0000
0000
0000
0000
0000
0100
0000
0000
0000
0000
0000
0000
0000
0000
0000
0000
0000
0000
0000
0000
0000
1000
0000
0000
0000
0000
0000
0000
0000
0000
0000
0000
0000
0000
0000
0000
0000
0001
0000
0000
0000
0000
0000
0000
0000
0000
0000
0000
0000
0000
0000
0000
0000
2010
0000
0000
0000
0000
0000
0000
0000
0000
0000
0000
0000
0000
0000
0000
0000
0000
0000
0000
0000
0000
0000
0000
0000
0000
0000
0000
0000
0000
0000
0000
0000
0000
0000
0000
0000
0000
0000
0000
0000
3000
0000
0001
0000
0000
0000
0000
0000
,
1000
0100
0001
0010
0100
1000
0010
0001
0100
1000
0010
0100
0001
0100
0001
0010
0100
1000
0100
0001
0010
0100
0001
0010
0100
1000
0100
0001
0010
0100
0001
1000
,
0100
0010
0001
0100
0010
1000
0001
0010
0100
0001
1000
0100
0001
0010
0100
1000
1001
0100
0001
0010
0100
1000
0001
0010
0100
0001
1000
0100
0001
0100
0010
0001
,
0000
0100
1000
0100
1000
0100
0000
0010
0001
0010
0001
0010
0000
0100
1000
0100
,
1000
0100
0000
0010
0001
0010
0001
0010
0000
0100
1000
0100
1000
0100
0000
0010
,
0001
0010
0001
0010
0000
0100
1000
0100
1000
0100
0000
0010
0001
0010
0001
0010
,
0000
0100
0001
0010
0100
1000
0000
0100
0001
0100
0010
0001
1000
0100
0001
0010
,
0100
1000
0100
0001
0100
0010
1000
0001
,
0100
0010
1000
0001
0010
0100
0001
1000
,
0100
0001
0100
0010
1000
0001
0100
0010
,
1000
0001
0100
0001
1000
0100
0001
0100
,
0010
1000
0001
0100
0010
1000
0001
0100
,
0010
1000
0001
0100
0010
0001
0100
1000
,
0001
1000
0100
0001
0110
1001
0110
1001
,
0110
1000
0010
0001
0100
0001
0100
1000
,
0010
1000
0010
0100
,
0001
1000
0100
0001
,
0010
0100
1000
0001
,
0100
0010
0001
0010
,
1000
0000
0100
0000
,
0001
0000
1000
0000
,
0100
0000
0001
0000
,
0010
0000
0100
0000
,
1000
0000
0010
0000
,
0100
0000
1000
0000
,
0001
0000
0100
0000
,
0001
0000
0100
0000
,
0001
0000
0000
0000
,
0100
0000
0000
0000
,
1000
0000
0000
0000
,
0001
0000
0000
0000
,
1000
0000
0000
0000
,
0001
0000
0000
0000
,
1000
0000
0000
0000
,
0001
0000
0000
0000
,
1000
0000
0000
0000
,
0001
0000
0000
0000
,
1000
0000
0000
0000
,
0001
0000
0000
0000
,
1000
0000
0000
0000
,
0001
0000
0000
0000
,
1000
0000
0000
0000
,
0001
0000
0000
0000
,
1000
0000
0000
0000
,
0001
0001
0001
0000
0000
1000
1000
1000
0000
0000
0010
0010
0010
0100
0100
0100
2002
3003
0000
0000
0000
0000
0000
0000
0000
0000
0000
0000
0000
0000
0000
0000
0000
0000
0000
0000
0000
0000
0000
0000
0000
0000
0000
0000
0000
0000
0000
0000
0000
0000
0000
0000
0000
0000
0000
0000
0000
0000
0000
0000
0000
0000
0000
0000
;
